@kostett

Тег софт в блоге kostett

kostett

Две отличные программы для видео-монтажа раздают БЕСПЛАТНО!

Сегодня можно получить лицензионные версии программ Vegas Movie Studio 14 и Movie Maker - PRO совершенно бесплатно! И для этого не нужно делать ничего сложного, просто зайти на сайт и заполнить форму.

Получить Vegas Movie Studio 14: https://goo.gl/DNmaJ2
Получить Movie Maker - PRO: https://goo.gl/pRvBTA

Торопись! Эти программы бесплатно раздают впервые, и предложение ограничено по времени


збс, чо

#mxxnv 29
Вы можете выбрать до 10 файлов общим размером не более 10 МБ.
kostett

Почему все лончеры на ведроид одинаковые и говно?
Где лончеры с алфавитным списком приложений? Нахрен мне строка поиска гугла на глагне? Нахрен мне вообще глаген?
Хотя бы чо-нить типа интерфейса Harmattan найти — а фигушки. Управление однопальцевыми жестами — сунуть и пососать. Лончеры с неотключаемой рекламой.
Торчал бы у меня из жопы электрод, анус бы заварился.

#owmdh 7
Вы можете выбрать до 10 файлов общим размером не более 10 МБ.
kostett

Вопрос на миллион нихуя: помню, была у меня под виндой программулина, которая конвертировала бмп в исо, который можно записать на диск и дорожками бы на нём рисовалась та самая бмп. Привод точно был самый обыкновенный, без lightscribe и подобного. Как называется?

#oojjus 8
Вы можете выбрать до 10 файлов общим размером не более 10 МБ.
kostett

Поинтач, посоветуй прогу на венды, чтобы
1) смотреть сразу несколько RTSP-потоков в одном окне (записи не надо)
2) работа от пользователя, а не админа
Спасибо
cast greenbastad, например

#icwis 2
Вы можете выбрать до 10 файлов общим размером не более 10 МБ.
kostett

А вы не охуели ль, пидары, за меня решать, какая тема мне удобнее?

#iaojq 5
Вы можете выбрать до 10 файлов общим размером не более 10 МБ.
kostett

Встречал на печатных платах всяких роутеров дорожки, идущие гармошкой. Здравый смысл подсказывает что это что-то типа катушки индуктивности. Так вот, как в Eagle делать такие индуктивности?

#icukx 7
Вы можете выбрать до 10 файлов общим размером не более 10 МБ.
kostett

А есть какой нативный автотюн на лялех? Чтобы Ardour подхватил.

#iozoc 3
Вы можете выбрать до 10 файлов общим размером не более 10 МБ.
kostett

Посоветуйте лёгкий мыльник на винду типа Sylpheed.

#iozou
Вы можете выбрать до 10 файлов общим размером не более 10 МБ.
kostett

Maelstrom тыкал кто? Как, есть перспективы?

#vnumh 3
Вы можете выбрать до 10 файлов общим размером не более 10 МБ.
kostett

А какой есть быстрый (даже на нетбуке) гуёвый мыльник на лялех?
В принципе, интерфейс Яндекс.Почты всем устраивает, но, сцуко, тормозит.
То есть, какие фичи нужны:
1) просмотр переписки;
2) малое потребление рамы;
3) оповещения;
4) умение подставлять адреса электронки по имени её владельца или по первым набранным символам.

#vyelm 5
Вы можете выбрать до 10 файлов общим размером не более 10 МБ.
kostett

Блядь! Calligra заебала уже крэшиться! Единственный юзабельный офиссьют, а сегфолтится при полгиге свободной рамы как сантехник при виде метилового спирта >_<

#vyycu 4
Вы можете выбрать до 10 файлов общим размером не более 10 МБ.
kostett

Как в лялехе искать текст по PDFкам в некой папке? Файлы несканированные, если что.

#vnrha
Вы можете выбрать до 10 файлов общим размером не более 10 МБ.
kostett

А в чём, кстати, под первотег лучше писать и дебажить, если у меня нетбук и KDE5?

#vrxyz 7
Вы можете выбрать до 10 файлов общим размером не более 10 МБ.
kostett

Есть вот такой видос:
Stream #0:0(eng): Video: h264 (Constrained Baseline) (avc1 / 0x31637661), yuvj420p(pc, smpte170m/bt709/bt709), 1280x720, 23459 kb/s, 29.97 fps, 29.97 tbr, 30k tbn, 60k tbc (default)
Stream #0:1(eng): Audio: pcm_s16le (sowt / 0x74776F73), 48000 Hz, stereo, s16, 1536 kb/s (default)
Как его перегнать в webm, чтобы без квадратиков и прочего? -crf 4 у ffmpeg не прокатила.

#ovrmhz
Вы можете выбрать до 10 файлов общим размером не более 10 МБ.
kostett

Пытаюсь нарулить хотя бы звукозапись в Cubase и чувствую себя злоебучим нубом, который даже не знает что гуглить.
Не, ну а чо — в гитарриге осилил всё сделать, в стэндалон режиме работает, а в кубаси нифига — в настройках напротив нужных мне входов inactive и даже перестановка галочек не помогает. Ёбаные гуёвые конфиги, что даже параметр не погуглишь.

#ovrmkf
Вы можете выбрать до 10 файлов общим размером не более 10 МБ.
kostett

Подскажите какой-нибудь файрвол на винду, чтобы ещё и системные приложения/сервисы ограничивать мог. Лучше опенсорц, но можно и недорогое что-нибудь.

#ovrsqz 6
Вы можете выбрать до 10 файлов общим размером не более 10 МБ.
kostett

via #ovqztu
Кубась — юзерфрендли. Где-то на уровне санвокса и на порядок лучше фруктов.

#ovqzzr
Вы можете выбрать до 10 файлов общим размером не более 10 МБ.
kostett

via #ovqzih
М-м, кубась, судя по скринам, похож на ардуру. Особенно пятый. Качаю, чего уж тут.

#ovqztu
Вы можете выбрать до 10 файлов общим размером не более 10 МБ.
kostett

Микшер во фруктах — упоротая НЁХ. Или я не могу познать его дзен. Как мне, например, громкости каналов паттерна по отдельности регулировать? А ездраммер в гитарриг как завернуть? В чём вообще смысл наличия отдельно паттернов и всего трека, если у меня повторяющихся моментов практически нет?
Совсем избаловался джеком и ардурой в лялехе, в общем.
Кубась что ли попробовать, или одно и то же?

#ovqzih 3
Вы можете выбрать до 10 файлов общим размером не более 10 МБ.
kostett

Чорд. Как воткнуть личкрафты на убунту 12.04 (точнее, elementary OS Luna)?
Делаю sudo add-apt-repository ppa:tehnick/leechcraft-stable, sudo apt-get update и apt-cache search leechcraft возвращает пустоту. ЧЯДНТ?

#ovrzcx 2
Вы можете выбрать до 10 файлов общим размером не более 10 МБ.

Добавить пост

Вы можете выбрать до 10 файлов общим размером не более 10 МБ.
Для форматирования текста используется Markdown.